发表于 2016-07-26

◎译  名 恋爱学分/第二起跑线/大学新鲜人的浪漫爱情
◎片  名 Starter for 10
◎年  代 2006
◎国  家 英国/美国
◎类  别 喜剧/剧情/爱情
◎语  言 英语
◎上映日期 2006-11-10
◎IMDb评分  6.8/10 from 17,044 users
◎豆瓣评分 6.7/10 from 9,499 users
◎片  长 92 分钟
◎导  演 汤姆·沃恩 Tom Vaughan
◎主  演 詹姆斯·麦卡沃伊 James McAvoy
      多米尼克·库珀 Dominic Cooper
      丽贝卡·豪尔 Rebecca Hall
      爱丽丝·伊芙 Alice Eve
      詹姆斯·柯登 James Corden
      本尼迪克特·康伯巴奇 Benedict Cumberbatch
      西蒙·伍兹 Simon Woods

◎简  介

  这是布莱恩·杰克逊(詹姆斯·麦卡沃伊 James McAvoy 饰)刚刚升入英国布里斯托大学的第一年,纵情的聚会和销魂的香烟都令他如坠云端,然而更加吸引他的则是比拼知识的电视节目大学挑战赛。虽然负责带队的老师(本尼迪克特·康伯巴奇 Benedict Cumberbatch 饰)开始对他不屑一顾,但布拉恩还是凭借从小对知识的积累和热情赢得了参赛资格,与此同时,与美丽队友爱丽丝(爱丽丝·伊芙 Alice Eve 饰)的暧昧火花也翩然而至。然而在际遇丰富的大学校园中,布莱恩又恋上了另一位有思想的女生丽贝卡(丽贝卡·豪尔 Rebecca Hall 饰)并同她度过了第一个离家在外的新年。然而当对手强大的比赛和三角恋情的压力来临,布莱恩是否做好了准备迎接人生挑战,赢得成长学分?

Video
ID                                       : 1
Format                                   : AVC
Format/Info                              : Advanced Video Codec
Format profile                           : [email protected]
Format settings, CABAC                   : Yes
Format settings, ReFrames                : 3 frames
Codec ID                                 : V_MPEG4/ISO/AVC
Duration                                 : 1h 36mn
Bit rate                                 : 10.2 Mbps
Width                                    : 1 920 pixels
Height                                   : 1 080 pixels
Display aspect ratio                     : 16:9
Frame rate mode                          : Constant
Frame rate                               : 24.000 fps
Color space                              : YUV
Chroma subsampling                       : 4:2:0
Bit depth                                : 8 bits
Scan type                                : Progressive
Bits/(Pixel*Frame)                       : 0.205
Stream size                              : 6.72 GiB (85%)
Writing library                          : x264 core 148 r2638 7599210
Encoding settings                        : cabac=1 / ref=4 / deblock=1:-1:-1 / analyse=0x3:0x113 / me=umh / subme=7 / psy=1 / psy_rd=1.00:0.00 / mixed_ref=1 / me_range=24 / chroma_me=1 / trellis=2 / 8x8dct=1 / cqm=2 / deadzone=21,11 / fast_pskip=1 / chroma_qp_offset=-5 / threads=6 / lookahead_threads=1 / sliced_threads=0 / nr=0 / decimate=0 / interlaced=0 / bluray_compat=0 / constrained_intra=0 / bframes=5 / b_pyramid=1 / b_adapt=2 / b_bias=2 / direct=3 / weightb=1 / open_gop=0 / weightp=2 / keyint=230 / keyint_min=22 / scenecut=40 / intra_refresh=0 / rc_lookahead=45 / rc=2pass / mbtree=1 / bitrate=10208 / ratetol=1.0 / qcomp=0.60 / qpmin=10 / qpmax=41 / qpstep=4 / cplxblur=20.0 / qblur=0.5 / ip_ratio=1.30 / aq=1:1.00
Language                                 : English
Default                                  : Yes
Forced                                   : No

Audio
ID                                       : 2
Format                                   : DTS
Format/Info                              : Digital Theater Systems
Mode                                     : 16
Format settings, Endianness              : Big
Codec ID                                 : A_DTS
Duration                                 : 1h 36mn
Bit rate mode                            : Constant
Bit rate                                 : 1 509 Kbps
Channel(s)                               : 6 channels
Channel positions                        : Front: L C R, Side: L R, LFE
Sampling rate                            : 48.0 KHz
Frame rate                               : 93.750 fps (512 spf)
Bit depth                                : 24 bits
Compression mode                         : Lossy
Stream size                              : 1.02 GiB (13%)
Language                                 : English
Default                                  : Yes
Forced                                   : No

Text
ID                                       : 3
Format                                   : UTF-8
Codec ID                                 : S_TEXT/UTF8
Codec ID/Info                            : UTF-8 Plain Text
Language                                 : English
Default                                  : Yes
Forced                                   : No

Menu
00:00:00.000                             : en:00:00:00.000
00:05:31.166                             : en:00:05:31.166
00:12:34.541                             : en:00:12:34.541
00:18:16.958                             : en:00:18:16.958
00:21:26.333                             : en:00:21:26.333
00:25:24.333                             : en:00:25:24.333
00:32:40.041                             : en:00:32:40.041
00:37:23.333                             : en:00:37:23.333
00:43:41.166                             : en:00:43:41.166
00:46:49.500                             : en:00:46:49.500
00:52:58.041                             : en:00:52:58.041
00:57:59.250                             : en:00:57:59.250
01:02:51.583                             : en:01:02:51.583
01:10:54.750                             : en:01:10:54.750
01:21:21.541                             : en:01:21:21.541
01:32:13.041                             : en:01:32:13.041